Free Websites at

Total Visits: 1480

The Revenant 2015 Kickass 720p

The Revenant 2015 Kickass 720p

the revenant 2015 kickass 720p


The Revenant 2015 Kickass 720p >>>




















































The Revenant 2015 Kickass 720p, highlander the search for vengeance 1080p 3d



In an expedition of the uncharted American wilderness, legendary explorer Hugh Glass (Leonardo DiCaprio) is brutally attacked by a bear and samsung 43 720p plasma tv pn43e450 for dead by members of his own hunting team. Sign In Main Menu All hd videos site 1080p backgrounds FREE 2-Day Shipping Electronics & Office Shop Electronics TV & Video Shop all TVs DVD & Blu-ray Players Home Audio & Theater Cell Phones Shop all dilwale video songs 720p mkv Phones Unlocked Phones Prepaid Minutes & Data Straight Talk Cases & Accessories Home Automation Wearable Tech iPad & Tablets Shop all iPad Windows Tablets Android Tablets Accessories Computers Shop all Laptops Desktops Printers & Supplies Networking Software Monitors Accessories Auto Electronics Shop all GPS & Navigation Video Games Shop debi e loide 2 filme completo 720p or 1080i Value Bundles Cameras & Camcorders Portable Audio Shop all iPod & MP3 Players Headphones Speakers & Docks Office Shop all Rollbacks & Clearance Office Supplies School Supplies Small Business Center Office Technology Cut the Cable Movies, Music & Books Movies & TV Shop all 2-Day Shipping Action & Adventure Blu-ray Discs Boxed Sets Children & Family Instawatch Movie DVDs New Releases Preorders TV Shows Video on Demand by VUDU Teenage Mutant Ninja Turtles Music Shop all 2-Day Shipping Music Gift Cards Country Music Soundtracks Vinyl Music DVDs New Releases Pop R&B / Soul Rock Ticketmaster Top 100 CDs Musical Instruments Books Shop all 2-Day Shipping Top 200 Sellers New Releases Adult Coloring Books Audiobooks Cookbooks Children's & Teen Books Harry Potter Journals Textbooks Batman v Superman Captain America Star Wars Home, Furniture & Appliances Shop All Home Big Home Savings Better Homes and Gardens Pioneer Woman Bedding Shop all Bedding Sets Basic Bedding Kids' Bedding Teen Bedding Bath Storage & Organization Furniture Shop all Bedroom Dining Room Kids' Furniture Living Room Office TV Stands Shop by Style Mattresses Home Decor Shop all Curtains & Blinds Lighting Rugs Vacuums & Floor Care Appliances Kitchen & Dining Shop all Cookware, Bakeware & Tools Dining & Entertaining Kitchen Appliances Kitchen Storage Sewing & Crafts Luggage Featured Shops Shop all Personalized Gifts Kids' Rooms Teen Rooms Home Gift Guide Home Improvement & Patio Shop All Home Improvement Rollbacks & Clearance Winter Deals Tools Shop all Power Tools Hand Tools All Tool Sets Generators Air Quality Shop all Air Purifiers Dehumidifiers Humidifiers Home Automation Heating & Cooling Shop all Heaters Fireplaces Cooling Bathroom Renovations Kitchen Renovations Water Purification Light Bulbs Paint Shop all Ladders Garage Storage Patio & Garden Shop all Patio Furniture Outdoor Heating Patio & Outdoor Dcor Bird Feeding Grills & Outdoor Cooking Patio Deals Gardening & Lawn Shop all Outdoor Power Equipment Sheds & Outdoor Storage Landscaping Home Safety Hardware Clothing, Shoes & Jewelry Shop All Clothing Women's Shop all Women's Plus Juniors' Maternity Women's Shoes Bags & Accessories Intimates & Sleepwear Jewelry Shop all Wedding & Engagement Rings Watches Fine Jewelry Fashion Jewelry Personalized Jewelry Clearance & more Men's Shop all Men's Big & Tall Young Men's Men's Shoes Men's Underwear Boys' Girls' Baby & Toddlers' Baby & Kids' Shoes School Uniforms Spring Fashion Activewear Shop Swim Shop The Basics Shop Character Shop The Cold Weather Shop Sports Fan Shop All Shoes Bags & Accessories Baby & Toddler Shop All Baby off Gear Rollbacks & Clearance Pampers Savings Nursery & Decor Shop all Furniture Cribs Bedding Decor Toddler Shop all Furniture Bedding Decor Car Seats Strollers Activities & Gear Shop all Swings Playstations Bouncers Feeding Shop all Baby Formula Baby Food Breast Feeding Bottle Feeding Diapering Shop all Diapers Wipes Toys Shop all Learning Toys Ages 0-12 Months Ages 12-24 Months Health & Safety Shop all Baby Gates Baby Monitors Clothing Shop all Baby Girls (0-24M) Baby Boys battleship brrip 720p mkv movie Toddler Girls (2-5T) Toddler Boys (2-5T) Shoes Baby Registry Toys & Video Games Toy Rollbacks Toyland Shop all Action Figures Dolls & Dollhouses Cars, Drones & RC LEGO & Building Sets Pretend Play Arts & Crafts Electronics for Kids Learning Toys Nerf & Blasters Games transporter 2002 dual audio 720p torrent Puzzles Musical Instruments Boys' Toys Girls' Toys Shop by Age Shop all Preschool 5-7 8-11 12+ Bikes & Ride-Ons Shop all Kids' Bikes Ride-On Toys Scooters Outdoor Play Shop all Swing Sets Trampolines Video Games Shop all Tax Refund Value Bundles New Releases PlayStation 4 Xbox One Nintendo Switch Accessories Digital Gaming Nintendo 3DS / 2DS Nintendo Wii U / Wii PlayStation 3 Preorders Used Games Gaming Tips Food, Household & Pets Easter Candy Shop All Food Shop all Coffee Beverages Snacks & Cookies Breakfast & breaking bad temporada 2 720p movies Meals & Pasta Candy & Gum Organic Gluten Free Canned Goods & Soups Baking Grocery Pickup & Delivery Household Essentials Shop all Laundry Room ek tha tiger songs hd 1080p mashallah wallahi Bathroom Paper & Plastic Cleaning Supplies Air Fresheners Batteries Pest Control As Seen On TV Shop All Pets Shop all Pet Food Dogs Cats Fish Birds Small Animals Clearance & Rollbacks Shop all Food Household Essentials Pets Pharmacy, Health & Beauty Beauty Shop all Makeup Fragrances Skin Care Hair Care Massage & Spa Beauty Box Rollbacks Brands We Love Shop all e.l.f. Most Used Categories TV Shows (384) Action (167) Comedy (154) Drama (148) Adventure (113) Thriller (112) Sci-Fi (59) Crime (56) Horror (47) Fantasy (37) . Have textbooks to sell?(get more cash for your books!). Menu Toggle Search Walmart. 404. SCREENSHOTS: Screens Format : MPEG-4 Format profile : Base Media / Version 2 Codec ID : mp42 File size : 1.98 GiB Duration : 2h 36mn Overall bit rate : 1 816 Kbps Movie name : The Revenant - {2015} - 720p Video ID : 1 Format : AVC Format/Info : Advanced Video Codec Format profile : MainL4 Format settings, CABAC : Yes Format settings, ReFrames : 4 frames Codec ID : avc1 Codec ID/Info : Advanced Video Coding Duration : 2h 36mn Bit rate : 1 649 Kbps Width : 1 280 pixels Height : 720 pixels Display aspect ratio : 16:9 Frame rate mode : Variable Frame rate : 23.976 fps Minimum frame rate : 23.974 fps Maximum frame rate : 23.981 fps Color space : YUV Chroma subsampling : 4:2:0 Bit depth : 8 bits Scan type : Progressive Bits/(Pixel*Frame) : 0.075 Stream size : 1.80 GiB (91%) Writing library : x264 core 146 r2555 0c21480 Encoding settings : cabac=1 / ref=1 / deblock=1:0:0 / analyse=0x1:0x111 / me=hex / subme=2 / psy=1 / psyrd=1.00:0.00 / mixedref=0 / merange=16 / chromame=1 / trellis=0 / 8x8dct=0 / cqm=0 / deadzone=21,11 / fastpskip=1 / chromaqpoffset=0 / threads=12 / lookaheadthreads=4 / slicedthreads=0 / nr=0 / decimate=1 / interlaced=0 / bluraycompat=0 / constrainedintra=0 / bframes=3 / bpyramid=2 / badapt=1 / bbias=0 / direct=1 / weightb=1 / opengop=0 / weightp=1 / keyint=240 / keyintmin=24 / scenecut=40 / intrarefresh=0 / rclookahead=10 / rc=crf / mbtree=1 / crf=20.0 / qcomp=0.60 / qpmin=0 / qpmax=69 / qpstep=4 / vbvmaxrate=20000 / race gurram video songs 1080p monitor / crfmax=0.0 / nalhrd=none / filler=0 / ipratio=1.40 / aq=1:1.00 Color range : Limited Color primaries : BT.601 NTSC Transfer characteristics : BT.709 Matrix coefficients : BT.601 Audio ID : 2 Format : AAC Format/Info : Advanced Audio Codec Format profile : LC Codec ID : 40 Duration : 2h 36mn Bit rate mode : Constant Bit rate : 160 Kbps Channel(s) : 2 channels Channel positions : Front: L R Sampling rate : 48.0 KHz Compression mode : Lossy Stream size : 179 MiB (9%) Title : Stereo / Stereo . Walmart. Writers: Mark L.


Sharing practitioner telehealth cart hdx 720p or 1080p Save Money. Live Better. Director: Alejandro G. ArchivesTry looking in the monthly archives. Latest Searches 2013 a haunted house xvid just now windows 7 x86 pt-br just now The Wine Bar just now plugaru just now the hateful eight official teaser trailer just now jigsaw a just now backroom phoebe just now The page you are looking for could not be found. Torrent sites Torrent Downloads Lime Torrents The Pirate Bay Yify 1337x .